#TITLE:Let Me Play;
#SUBTITLE:;
#ARTIST:Unknown;
#TITLETRANSLIT:;
#SUBTITLETRANSLIT:;
#ARTISTTRANSLIT:;
#CREDIT:;
#BANNER:;
#BACKGROUND:Let Me Play-bg.png;
#LYRICSPATH:;
#CDTITLE:;
#MUSIC:Let Me Play [173].mp3;
#MUSICLENGTH:90.514;
#OFFSET:-0.080;
#SAMPLESTART:13.780;
#SAMPLELENGTH:12.000;
#SELECTABLE:YES;
#BPMS:0.000=174.240;
#STOPS:;
#BGCHANGES:;
#FIRSTBEAT:40.000;

#LASTBEAT:259.500;

#SONGFILENAME:Songs/EXTRA/Let Me Play/Let Me Play.sm;

#HASMUSIC:1;

#HASBANNER:0;


//---------------dance-single - ANOTHER----------------
#NOTES:
     dance-single:
     ANOTHER:
     medium:
     6:
     0.382,0.645,0.563,0.177,0.000,175.000,51.000,16.000,0.000,0.000:  // measure 1
0000
0000
0000
0000
,  // measure 2
0000
0000
0000
0000
,  // measure 3
0000
0000
0000
0000
,  // measure 4
0000
0000
0000
0000
,  // measure 5
0000
0000
0000
0000
,  // measure 6
0000
0000
0000
0000
,  // measure 7
0000
0000
0000
0000
,  // measure 8
0000
0000
0000
0000
,  // measure 9
0000
0000
0000
0000
,  // measure 10
0000
0000
0000
0000
,  // measure 11
2000
0000
0000
0000
,  // measure 12
3002
0000
0000
0000
,  // measure 13
0023
0000
0000
0000
,  // measure 14
0230
0000
0000
0000
,  // measure 15
2300
0000
0000
0000
,  // measure 16
3020
0000
0000
0000
,  // measure 17
0230
0000
0000
0000
,  // measure 18
0302
0000
0000
0000
,  // measure 19
0013
0000
0001
0000
,  // measure 20
0100
1000
0100
1000
,  // measure 21
0001
0000
0100
0000
,  // measure 22
1000
0010
1000
0010
,  // measure 23
0100
0000
1000
0000
,  // measure 24
0010
0001
0010
0001
,  // measure 25
1000
0000
0010
0000
,  // measure 26
0001
0100
0001
0100
,  // measure 27
1000
1000
0001
0001
,  // measure 28
1000
1000
0001
0001
,  // measure 29
0100
0100
1000
1000
,  // measure 30
0100
0100
0001
0001
,  // measure 31
1000
0000
1000
0000
,  // measure 32
0001
0000
0001
0000
,  // measure 33
0002
1000
1000
0010
,  // measure 34
0010
0010
0100
0103
,  // measure 35
0001
0001
1010
1010
,  // measure 36
0001
0001
1100
1100
,  // measure 37
0010
0010
0100
0100
,  // measure 38
0010
0010
0100
0100
,  // measure 39
1000
1000
0011
0011
,  // measure 40
1000
1000
0101
0101
,  // measure 41
0100
0100
0010
0010
,  // measure 42
0100
0100
0010
0010
,  // measure 43
0101
1100
0101
1100
,  // measure 44
1100
0101
1100
0101
,  // measure 45
0001
0001
1000
1000
,  // measure 46
0001
0001
1000
1000
,  // measure 47
1010
0011
1010
0011
,  // measure 48
0011
1010
0011
1010
,  // measure 49
2000
0001
0001
0010
,  // measure 50
0010
0010
0100
3100
,  // measure 51
0101
1010
0101
1010
,  // measure 52
0001
0001
0010
0010
,  // measure 53
1100
0011
1100
0011
,  // measure 54
1000
1000
0010
0010
,  // measure 55
1000
0010
0001
0100
,  // measure 56
1000
0010
0001
0100
,  // measure 57
0001
0000
0010
0000
,  // measure 58
1000
0000
0100
0000
,  // measure 59
1010
0011
0101
1100
,  // measure 60
1010
0011
0101
1100
,  // measure 61
0101
0011
1010
1100
,  // measure 62
0101
0011
1010
1100
,  // measure 63
2020
0000
0000
3030
0100
0000
0001
0000
,  // measure 64
0022
0000
0000
0033
0100
0000
1000
0000
,  // measure 65
2002
0000
0000
0000
0000
0000
0000
3003
;

//---------------dance-single - MANIAC----------------
#NOTES:
     dance-single:
     MANIAC:
     hard:
     8:
     0.407,0.466,0.011,0.133,0.282,245.000,1.000,12.000,0.000,0.000:  // measure 1
0000
0000
0000
0000
,  // measure 2
0000
0000
0000
0000
,  // measure 3
0000
0000
0000
0000
,  // measure 4
0000
0000
0000
0000
,  // measure 5
0000
0000
0000
0000
,  // measure 6
0000
0000
0000
0000
,  // measure 7
0000
0000
0000
0000
,  // measure 8
0000
0000
0000
0000
,  // measure 9
0000
0000
0000
0000
,  // measure 10
0000
0000
0000
0000
,  // measure 11
2000
0000
0000
0000
,  // measure 12
3002
0000
0000
0000
,  // measure 13
0023
0000
0000
0000
,  // measure 14
0230
0000
0000
0000
,  // measure 15
2300
0000
0000
0000
,  // measure 16
3020
0000
0000
0000
,  // measure 17
0230
0000
0000
0000
,  // measure 18
0002
0000
0000
0000
,  // measure 19
0303
0100
0000
1000
0000
0001
0000
0001
,  // measure 20
0000
0010
0000
0010
0000
0001
0000
0001
,  // measure 21
0000
1000
0000
0010
0000
0100
0000
0100
,  // measure 22
0000
0001
0000
0001
0000
0100
0000
0100
,  // measure 23
0000
0001
0000
0010
0000
0100
0000
0100
,  // measure 24
0000
1000
0000
1000
0000
0100
0000
0100
,  // measure 25
0000
0010
0000
0001
0000
1000
0000
1000
,  // measure 26
0000
0100
0000
0100
0000
1000
0000
1000
,  // measure 27
1000
1000
0000
0001
0000
0001
0000
1000
,  // measure 28
0000
0001
0000
1000
0000
1000
0000
0001
,  // measure 29
0000
0010
0000
0001
0000
0100
0000
1000
,  // measure 30
0000
1000
0000
0100
0000
0001
0000
0010
,  // measure 31
0100
0010
0010
0100
,  // measure 32
0010
0100
0100
0010
,  // measure 33
0020
0000
0100
0000
,  // measure 34
1000
0100
0001
0100
,  // measure 35
1030
0000
0000
0100
0000
0000
0010
0000
0010
0000
0000
0001
0000
0000
0100
0000
,  // measure 36
1000
0000
0000
0100
0000
0000
0010
0000
0010
0000
0000
1000
0000
0000
0100
0000
,  // measure 37
0001
0000
0000
0100
0000
0000
0010
0000
0010
0000
0000
0001
0000
0000
0100
0000
,  // measure 38
1000
0000
0000
0100
0000
0000
0010
0000
0010
0000
0000
1000
0000
0000
0100
0000
,  // measure 39
0001
0000
0000
0010
0000
0000
0100
0000
0100
0000
0000
0100
0000
0000
0100
0000
,  // measure 40
1000
0000
0000
0010
0000
0000
0100
0000
0100
0000
0000
0100
0000
0000
0100
0000
,  // measure 41
0001
0000
0000
0100
0000
0000
0010
0000
0010
0000
0000
0010
0000
0000
0010
0000
,  // measure 42
1000
0000
0000
0100
0000
0000
0010
0000
0010
0000
0000
0010
0000
0000
0010
0000
,  // measure 43
1000
0000
0000
0001
0000
0000
0010
0000
0001
0000
0000
0100
0000
0000
1000
0000
,  // measure 44
0100
0000
0000
0100
0000
0000
0001
0000
0010
0000
0000
0010
0000
0000
0001
0000
,  // measure 45
0001
0000
0000
1000
0000
0000
0010
0000
1000
0000
0000
0100
0000
0000
0001
0000
,  // measure 46
0100
0000
0000
0100
0000
0000
1000
0000
0010
0000
0000
0010
0000
0000
1000
0000
,  // measure 47
0100
0000
0000
1000
0000
0000
0001
0000
0001
0000
0000
0001
0000
0000
0001
0000
,  // measure 48
0010
0000
0000
1000
0000
0000
0001
0000
0001
0000
0000
0001
0000
0000
0001
0000
,  // measure 49
0200
0001
1000
1000
,  // measure 50
0010
1000
0001
0301
,  // measure 51
1000
0000
0000
0100
0000
0000
0010
0000
0001
0000
0000
0100
0000
0000
1000
0000
,  // measure 52
0100
0000
0000
0010
0000
0000
1000
0000
0100
0000
0000
0001
0000
0000
0100
0000
,  // measure 53
0001
0000
0000
0100
0000
0000
0010
0000
0001
0000
0000
0100
0000
0000
1000
0000
,  // measure 54
0100
0000
0000
0010
0000
0000
1000
0000
0100
0000
0000
0001
0000
0000
0100
0000
,  // measure 55
0010
0000
0000
0010
0000
0000
0100
0000
1000
0000
0000
0001
0000
0000
0001
0000
,  // measure 56
0100
0000
0000
0100
0000
0000
0010
0000
1000
0000
0000
0001
0000
0000
0001
0000
,  // measure 57
0010
0000
0000
0010
0000
0000
0100
0000
0001
0000
0000
1000
0000
0000
1000
0000
,  // measure 58
0100
0000
0000
0100
0000
0000
0010
0000
0001
0000
0000
1000
0000
0000
1000
0000
,  // measure 59
0001
0000
0000
1000
0000
0000
0100
0000
1000
0000
0000
0010
0000
0000
0001
0000
,  // measure 60
0010
0000
0000
0010
0000
0000
1000
0000
0100
0000
0000
0100
0000
0000
1000
0000
,  // measure 61
1000
0000
0000
0001
0000
0000
0100
0000
0001
0000
0000
0010
0000
0000
1000
0000
,  // measure 62
0010
0000
0000
0010
0000
0000
0001
0000
0000
0000
1000
0000
0010
0000
0001
0000
,  // measure 63
0100
1000
0010
0001
,  // measure 64
0010
0000
1000
0000
0100
0000
0001
0100
,  // measure 65
2002
0000
0000
0000
0000
0000
0000
3003
;
